0
Seeders
1
Leechers
705.40 MB
Size
Edit this file
Torrent file mirrors @Zoink.it - @Fenopy

Files

Vengeance torrent (size: 705.397 MB)
Poster.jpg
image
26.76 KB
.jpg
Sample.avi
video
5.61 MB
.avi
Screenshots.jpg
image
263.64 KB
.jpg
Torrent downloaded from AhaShare.com.txt
text
59.00 Bytes
.txt
Vengeance.avi
video
699.50 MB
.avi
Vengeance.nfo
text
2.98 KB
.nfo

This is a Thai Horror movie from 2006.

A young police officer, a local guide and his daughter follows the trail of a prison escapee, Nasor, into a mysterious forest with many hidden secrets, one of which directly relates to the death of Nasor's father at the hands of the father of the officer. As the group ventures deeper into the forest, the eerie realm unleashes its spirits unto the intruders, killing them one by one. Still intent on bringing Nasor to justice, the officer relentlessly pursues the criminal in a race against time and the unseen forces of the ancient forest.

General

Complete name :Vengeance.avi

Format :AVI

Format/Info :Audio Video Interleave

File size :699 MiB

Duration :1h 39mn

Overall bit rate :987 Kbps

Video

ID :0

Format :AVC

Format/Info :Advanced Video Codec

Format profile :High@L3.0

Format settings, CABAC :Yes

Format settings, ReFrames :5 frames

Codec ID :H264

Duration :1h 39mn

Bit rate :528 Kbps

Width :720 pixels

Height :436 pixels

Display aspect ratio :16/9

Frame rate :25.000 fps

Resolution :24 bits

Colorimetry :4:2:0

Scan type :Progressive

Bits/(Pixel*Frame) :0.067

Stream size :374 MiB (54%)

Writing library :x264 core 65

Application :Handbrake (OSX)

Audio

ID :1

Format :AC-3

Format/Info :Audio Coding 3

Codec ID :2000

Duration :1h 39mn

Bit rate mode :Constant

Bit rate :448 Kbps

Channel(s) :6 channels

Channel positions :Front: L C R, Surround: L R, LFE

Sampling rate :48.0 KHz

Stream size :318 MiB (45%)

Alignment :Aligned on interleaves

Interleave, duration :32 ms (0.80 video frame)

Interleave, preload duration :1536 ms

Language :Thai

Subtitles :English hardcoded

Post a new comment

  •