2
Seeders
0
Leechers
694.89 MB
Size
Edit this file
Torrent file mirrors @Zoink.it - @Fenopy

Files

The Evening Star (1996) MacLaine (DVDrip opt.NL subs)_Kuth torrent (size: 694.889 MB)
Info about this release.txt
text
4.48 KB
.txt
Notes on subtitle files.txt
text
1.68 KB
.txt
The Evening Star (1996) MacLaine (DVDrip opt.NL subs)_Kuth.avi
video
694.11 MB
.avi
The Evening Star (1996) optional Dutch subs.rar
compress
788.02 KB
.rar

<span style="font-weight: bold;">The Evening Star (1996) </span><!--bold--><br />

<span style="font-style: italic;">DVDrip English, optional Dutch subs in separate idx/sub files.</span><!--italic--><br />

<br />

This classic with <span style="font-weight: bold;">Shirley MacLaine</span><!--bold--> continues the story from 'Terms of Endearment'. No torrent for this film remains on the net, so I bought a copy of the only available European edition. It has only Dutch subtitles, so I kept them as an obtion for our friends in the Netherlands.<br />

<br />

My new ripping procedure now produces decent quality for such a long film compressed into just 700 MiB.<br />

<br />

DVDrip XviD 2-pass AC3.<br />

Letterbox format 672x512, great stereo AC3.<br />

<br />

Burn tested, runs well in my standalone DivX player.<br />

<br />

Source :PAL retail (note that PAL/NTSC will give no problems for avi files)<br />

<br />

<pre class="nfo">Format/Info : Audio Video Interleave

File size :694 MiB

Duration :2h 3mn

Overal bit rate :786 Kbps

Video

Format :MPEG-4 Visual

Format profile :Streaming Video@L1

Format settings, BVOP :Yes

Format settings, QPel :No

Format settings, GMC :No warppoints

Format settings, Matrix :Default

Muxing mode :Packet Bitstream

Codec ID :XVID

Codec ID/Hint :XviD

Duration :2h 3mn

Bit rate :648 Kbps

Width :672 pixels

Height :512 pixels

Display aspect ratio :4/3

Frame rate :25.000 fps

Resolution :8 bits

Colorimetry :4:2:0

Scan type :Progressive

Bits/(Pixel*Frame) :0.075

Stream size :573 MiB

Writing library :XviD 1.2.0.dev47 (UTC 2006-11-01)

Audio

Format :MPEG Audio

Format version :Version 1

Format profile :Layer 3

Codec ID :55

Codec ID/Hint :MP3

Duration :2h 3mn

Bit rate mode :Constant

Bit rate :128 Kbps

Minimum bit rate :128 Kbps

Channel(s) :2 channels

Sampling rate :48.0 KHz

Resolution :16 bits

Stream size :113 MiB

Writing library :LAME3.97

Encoding settings :CBR</pre><br />

<br />

Thanks to the uploader!<br />

<br />

<a target="_blank" rel="nofollow" href="Torrent preview image">And the boss says ...</a>

Post a new comment

  •