1
Seeders
0
Leechers
710.62 MB
Size
uploaded by
Alviakii
Edit this file
Secure download @BtGuard Torrent file mirrors @Zoink.it - @Fenopy Resources Search Google - Torrentz - IsoHunt

Files

The Croods.2013.DVDRip.XviD-WaLMaRT torrent (size: 710.620 MB)
subtitles
English
subtitles.srt
text
46.43 KB
.srt
NL
subtitles.srt
text
69.51 KB
.srt
Polish
subtitles.srt
text
31.13 KB
.srt
The Croods.2013.DVDRip.XviD-WaLMaRT.wmv
video
710.48 MB
.wmv

Video

ID :0

Format :MPEG-4 Visual

Format profile :Advanced Simple@L5

Format settings, BVOP :2

Format settings, QPel :No

Format settings, GMC :No warppoints

Format settings, Matrix :Default (H.263)

Muxing mode :Packed bitstream

Codec ID :XVID

Codec ID/Hint :XviD

Duration :1h 29mn

Bit rate :957 Kbps

Width :640 pixels

Height :352 pixels

Display aspect ratio :16:9

Frame rate :25.000 fps

Color space :YUV

Chroma subsampling :4:2:0

Bit depth :8 bits

Scan type :Progressive

Compression mode :Lossy

Bits/(Pixel*Frame) :0.170

Stream size :613 MiB (87%)

Writing library :XviD 64

Audio

ID :1

Format :MPEG Audio

Format version :Version 1

Format profile :Layer 3

Codec ID :55

Codec ID/Hint :MP3

Duration :1h 29mn

Bit rate mode :Constant

Bit rate :128 Kbps

Channel(s) :2 channels

Sampling rate :44.1 KHz

Compression mode :Lossy

Stream size :82.0 MiB (12%)

Alignment :Split accross interleaves

Interleave, duration :40 ms (1.00 video frame)

Interleave, preload duration :500 ms

Writing library :LAME3.99r

Encoding settings :-m s -V 4 -q 3 -lowpass 17 -b 128

Post a new comment

  •