This torrent was reported fake or harmful by our users. Try one of the below `verified torrents`.

0
Seeders
0
Leechers
689.15 MB
Size
uploaded by
peidt
Edit this file
Torrent file mirrors @Zoink.it - @Fenopy

Files

The Croods.2013.DVDRip.XviD-HAWKEYE torrent (size: 689.151 MB)
READ this before playing the Video.txt
text
5.97 KB
.txt
Subtitle.srt
text
64.77 KB
.srt
The Croods.2013.DVDRip.XviD-HAWKEYE.wmv
video
689.08 MB
.wmv
info.nfo
text
5.97 KB
.nfo

Format/Info :MPEG

File size :700 MiB

Duration :1h 37mn

Overall bit rate :1 007 Kbps

Writing library :VirtualDub build 32842/release

Video

ID :0

Format :MPEG-4 Visual

Format profile :Advanced Simple@L5

Format settings, BVOP :2

Format settings, QPel :No

Format settings, GMC :No warppoints

Format settings, Matrix :Default (H.263)

Muxing mode :Packed bitstream

Codec ID :XVID

Codec ID/Hint :XviD

Duration :1h 37mn

Bit rate :870 Kbps

Width :640 pixels

Height :272 pixels

Display aspect ratio :2.35:1

Frame rate :23.976 fps

Color space :YUV

Chroma subsampling :4:2:0

Bit depth :8 bits

Scan type :Progressive

Compression mode :Lossy

Bits/(Pixel*Frame) :0.208

Stream size :604 MiB (86%)

Writing library :XviD 64

Audio

ID :1

Format :MPEG Audio

Format version :Version 1

Format profile :Layer 3

Mode :Joint stereo

Mode extension :MS Stereo

Codec ID :55

Codec ID/Hint :MP3

Duration :1h 37mn

Bit rate mode :Constant

Bit rate :128 Kbps

Channel(s) :2 channels

Sampling rate :44.1 KHz

Compression mode :Lossy

Stream size :88.9 MiB (13%)

Alignment :Split accross interleaves

Interleave, duration :42 ms (1.00 video frame)

Interleave, preload duration :500 ms

Writing library :LAME3.98

Post a new comment

  •