0
Seeders
1
Leechers
700.32 MB
Size
uploaded by
mirela11
Edit this file
Secure download @BtGuard Torrent file mirrors @Zoink.it - @Fenopy Resources Search Google - Torrentz - IsoHunt

Files

Star Trek Into Darkness 3D 2013 FRENCH DVDRip XviD - playHD torrent (size: 700.321 MB)
Star Trek Into Darkness 3D 2013 FRENCH DVDRip XviD - playHD
Star Trek Into Darkness 3D 2013 FRENCH DVDRip XviD - playHD.rar
compress
699.70 MB
.rar
Star Trek Into Darkness 3D 2013 FRENCH DVDRip XviD - playHD.nfo
text
2.06 KB
.nfo
cover.jpg
image
492.53 KB
.jpg
screensho2.jpg
image
31.54 KB
.jpg
screensho3.jpg
image
22.47 KB
.jpg
screenshot1.jpg
image
91.55 KB
.jpg
Star Trek Into Darkness 3D 2013 FRENCH DVDRip XviD - playHD

STATS:

Video
ID                               : 0
Format                           : MPEG-4 Visual
Format profile                   : Advanced Simple@L5
Format settings, BVOP            : 2
Format settings, QPel            : No               
Format settings, GMC             : No warppoints               
Format settings, Matrix          : Default (MPEG)       
Muxing mode                      : Packed bitstream             
Codec ID                         : XVID        
Codec ID/Hint                    : XviD                    
Duration                         : 1h 43mn
Bit rate                         : 986 Kbps                
Width                            : 720 pixels     
Height                           : 320 pixels
Display aspect ratio             : 2.25:1
Frame rate                       : 29.970 fps       
Color space                      : YUV
Chroma subsampling               : 4:2:0
Bit depth                        : 8 bits
Scan type                        : Progressive
Compression mode                 : Lossy
Bits/(Pixel*Frame)               : 0.243
Stream size                      : 643 MiB (92%)
Writing library                  : XviD 64

Audio

Format                           : MPEG Audio
Format version                   : Version 1
Format profile                   : Layer 3
Mode                             : Joint stereo
Mode extension                   : MS Stereo
Codec ID                         : 55
Codec ID/Hint                    : MP3
Duration                         : 1h 43mn
Bit rate mode                    : Constant
Bit rate                         : 128 Kbps
Channel(s)                       : 2 channels
Sampling rate                    : 48.0 KHz
Compression mode                 : Lossy
Stream size                      : 56 MiB (7%)
Alignment                        : Split accross interleaves
Interleave, duration             : 33 ms (1.00 video frame) 
     
Interleave, preload duration     : 500 ms                                 

Post a new comment

  •