This torrent was reported fake or harmful by our users. Try one of the below `verified torrents`.

0
Seeders
1
Leechers
699.04 MB
Size
uploaded by
bahoy
Edit this file
Torrent file mirrors @Zoink.it - @Fenopy

Files

Skyfall (2012) FRENCH DVDRip XviD - WBZ torrent (size: 699.041 MB)
Skyfall (2012) FRENCH DVDRip XviD - WBZ
Skyfall (2012) FRENCH DVDRip XviD - WBZ.rar
compress
699.00 MB
.rar
Skyfall (2012) FRENCH DVDRip XviD - WBZ.nfo
text
1.93 KB
.nfo
cover.jpg
image
12.08 KB
.jpg
screenshot1.jpg
image
7.02 KB
.jpg
screenshot2.jpg
image
5.81 KB
.jpg
screenshot3.jpg
image
6.86 KB
.jpg
screenshot4.jpg
image
7.64 KB
.jpg
|||||||||||||||||||||||||||||||||||||||||||||||||||||||||||||||||||||||||||||||||||||||||||||||||||||||||||||||||||||||||||||||||||||||||||
Skyfall (2012) FRENCH DVDRip XviD - WBZ
||||||||||||||||||||||||||||||||||||||||||||||||||||||||||||||||||||||||||||||||||||||||||||||||||||||||||||||||||||||||||||||||||||
Format : AVI
Format/Info : Audio Video Interleave
Format profile : OpenDML
File size : 699 MiB
Duration : 2h 12mn
Overall bit rate : 1 052 Kbps
Writing application : VirtualDubMod 1.5.10.2 (build 2542/release)
Writing library : VirtualDubMod build 2542/release
Video
|||||||||||||
ID : 0
|||||||||||||
Format : MPEG-4 Visual
Format profile : AdvancedSimple@L5
Format settings, BVOP : Yes
Format settings, QPel : No
Format settings, GMC : No warppoints
Format settings, Matrix : Default (MPEG)
Codec ID : XVID
Codec ID/Hint : XviD
Duration : 2h 12mn
Bit rate : 942 Kbps
Width : 640 pixels
Height : 272 pixels
Display aspect ratio : 2.35:1
Frame rate : 23.976 fps
Resolution : 24 bits
Colorimetry : 4:2:0
Scan type : Progressive
Bits/(Pixel*Frame) : 0.271
Stream size : 669 MiB (78%)
Writing library : XviD 1.2.1 (UTC 2008-12-04)
Audio
||||||||||||
ID : 1
||||||||||||
Format : AC-3
Format/Info : Audio Coding 3
Codec ID : 2000
Duration : 2h 12mn
Bit rate mode : Constant
Bit rate : 128 Kbps
Channel(s) : 2 channels
Channel positions : Front: L  R
Sampling rate : 48.0 KHz
Stream size : 30 MiB (22%)
Alignment : Aligned on interleaves
Interleave, duration : 64 ms (1.53 video frames)
Interleave, preload duration : 192 ms
Source: DVD (perfect a/v/sync quality,sample included)

||||||||||||||||||||||||||||||||||||||||||||||||||||||||||||||||||||||||||||||||||||||||||||||||||||||||||||||||||||||||||||||||||||||||||
This torrent is not seedbox supported,please seed it.
||||||||||||||||||||||||||||||||||||||||||||||||||||||||||||||||||||||||||||||||||||||||||||||||||||||||||||||||||||||||||||||||||||||||||

Post a new comment

  •   

User comments (2)

Guest  1 year ago

fake

REPLY
  • 0
Guest  2 years ago

Fake !

REPLY
  • 1