Verified torrent.

214
Seeders
34
Leechers
1.38 GB
Size
Edit this file
Torrent file mirrors @Zoink.it - @Fenopy

Files

Sex and the City 2 (2010) DVDRip XviD-MAXSPEED torrent (size: 1.378 GB)
Sex and the City 2 (2010) DVDRip XviD-MAXSPEED www.torentz.3xforum.ro.avi
video
1.37 GB
.avi
Sex and the City 2 (2010) DVDRip XviD-MAXSPEED.nfo
text
2.56 KB
.nfo
Torrent downloaded from Demonoid.com.txt
text
47.00 Bytes
.txt
Torrent downloaded from Rarbg.com.txt
text
33.00 Bytes
.txt
Torrent verified and recommended by vertor.com.txt
text
46.00 Bytes
.txt
sample.avi
video
12.69 MB
.avi
tracked_by_h33t_com.txt
text
23.00 Bytes
.txt

Screens:

Alternative:

[code]Torrent preview image

Torrent preview image

Torrent preview image

Torrent preview image[/code]

ScreenCaps:

[code]Format :AVI

Format/Info :Audio Video Interleave

Format profile :OpenDML

File size :1.37 GiB

Duration :2h 20mn

Overall bit rate :1 390 Kbps

Writing application :VirtualDubMod 1.5.10.2 (build 2542/release)

Writing library :VirtualDubMod build 2542/release

Original source form :MAX TORRENTZ

Copyright :SIGISMUNT

Video

ID :0

Format :MPEG-4 Visual

Format profile :AdvancedSimple@L4

Format settings, BVOP :Yes

Format settings, QPel :No

Format settings, GMC :No warppoints

Format settings, Matrix :Default (H.263)

Muxing mode :Packed bitstream

Codec ID :XVID

Codec ID/Hint :XviD

Duration :2h 20mn

Bit rate :1 193 Kbps

Width :720 pixels

Height :288 pixels

Display aspect ratio :2.500

Frame rate :25.000 fps

Resolution :24 bits

Colorimetry :4:2:0

Scan type :Progressive

Bits/(Pixel*Frame) :0.230

Stream size :1.17 GiB (86%)

Writing library :XviD 1.2.1 (UTC 2008-12-04)

Audio

ID :1

Format :AC-3

Format/Info :Audio Coding 3

Codec ID :2000

Duration :2h 20mn

Bit rate mode :Constant

Bit rate :192 Kbps

Channel(s) :2 channels

Channel positions :L R

Sampling rate :48.0 KHz

Stream size :193 MiB (14%)

Alignment :Aligned on interleaves

Interleave, duration :64 ms (1.60 video frames)

Interleave, preload duration :192 ms

Source :KiNGDOM (perfect resynced-check included sample)

How To Get Your Maxspeed (uTorrent)

Torrent Client - Preferences - Bandwidth - Number of connections - Set aprox. 500 for each

Torrent Client - Preferences - BiTorrent - Protocol Encryption - Forced

Bandwidth Allocation - High (Set download/upload limit - Unlimited)

Stop Other Active Torrents - Start downloading and wait for connections

Enjoy and Seed for at least 1 : ratio. Don't forget to say thanks/leave reviews.

Also please spread the link where you found this torrent to your friends.

Don't trust IMDb robot or bad ratings,always watch some trailers first.

Ignore stupid comments and fake/mislabeled/CAM/TS/RAR uploads.

If you need translation subs visit some subtitles sites.

Recommended movie player VLC PLAYER.[/code]

Post a new comment

  •   

User comments (1)

azedin  4 years ago

sex and the city

REPLY
  • 0