9
Seeders
2
Leechers
553.16 MB
Size
uploaded by
gosajatt
Edit this file
Torrent file mirrors @Zoink.it - @Fenopy

Files

(RSVP) Ronde Sare Viyah Picho 2013 Punjabi Movie MCDVDSCR RIP-GOPI SAHI-PDR-PXRG torrent (size: 553.161 MB)
SCREN
(RSVP) Ronde Sare Viyah Picho 2013 Punjabi Movie MCDVDSCR RIP-GOPI SAHI-PDR.mkv_thumbs_[2013.10.15_21.39.11].jpg
image
99.30 KB
.jpg
Ronde-Saare-Viah-Picho-Punjabi-Movie POSTAR.jpg
image
178.99 KB
.jpg
gopi sahi.jpg
image
46.86 KB
.jpg
vlcsnap-2013-10-15-21h39m47s204.png
image
229.80 KB
.png
vlcsnap-2013-10-15-21h39m50s14.png
image
178.65 KB
.png
vlcsnap-2013-10-15-21h40m02s107.png
image
113.23 KB
.png
vlcsnap-2013-10-15-21h40m05s192.png
image
150.99 KB
.png
(RSVP) Ronde Sare Viyah Picho 2013 Punjabi Movie MCDVDSCR RIP-GOPI SAHI-PDR.mkv
video
543.12 MB
.mkv
Title Song Ronde Sare Viyah Picho (RSVP) -- Jaspreet Jasz Ft. Nikita - GOPI SAHI.mkv
video
9.07 MB
.mkv
Torrent Downloaded From.txt
text
567.00 Bytes
.txt
Torrent preview image

Torrent preview image

Video

ID :1

Format :AVC

Format/Info :Advanced Video Codec

Format profile :Main@L4.0

Format settings, CABAC :Yes

Format settings, ReFrames :4 frames

Codec ID :V_MPEG4/ISO/AVC

Duration :2h 6mn

Bit rate :500 Kbps

Width :576 pixels

Height :240 pixels

Display aspect ratio :2.40:1

Frame rate mode :Constant

Frame rate :29.970 fps

Color space :YUV

Chroma subsampling :4:2:0

Bit depth :8 bits

Scan type :Progressive

Bits/(Pixel*Frame) :0.121

Stream size :446 MiB (82%)

Writing library :x264 core 130

Language :English

Default :Yes

Forced :No

Color primaries :BT.601 NTSC

Transfer characteristics :BT.709

Matrix coefficients :BT.601

Audio

ID :2

Format :AC-3

Format/Info :Audio Coding 3

Mode extension :CM (complete main)

Format settings, Endianness :Big

Codec ID :A_AC3

Duration :2h 6mn

Bit rate mode :Constant

Bit rate :96.0 Kbps

Channel count :1 channel

Channel positions :Front: C

Sampling rate :48.0 KHz

Bit depth :16 bits

Compression mode :Lossy

Stream size :86.7 MiB (16%)

Default :Yes

Forced :No

Torrent preview image

Torrent preview image

Torrent preview image

Torrent preview image

Torrent preview image

Post a new comment

  •