0
Seeders
0
Leechers
710.63 MB
Size
uploaded by
Sapaulk
Edit this file
Torrent file mirrors @Zoink.it - @Fenopy

Files

R.I.P.D.2013.BDRip.X264-SPARKS torrent (size: 710.626 MB)
subtitles
English
subtitles.srt
text
46.43 KB
.srt
NL
subtitles.srt
text
69.51 KB
.srt
Polish
subtitles.srt
text
31.13 KB
.srt
Info.nfo
text
5.97 KB
.nfo
R.I.P.D.2013.BDRip.X264-SPARKS.wmv
video
710.48 MB
.wmv

Duration :2h 2mn

Overall bit rate :705 Kbps

Writing application :Lavf54.63.104

Video

Format :AVC

Format/Info :Advanced Video Codec

Format profile :High@L3.0

Format settings, CABAC :Yes

Format settings, ReFrames :1 frame

Codec ID :H264

Duration :2h 2mn

Bit rate :437 Kbps

Width :624 pixels

Height :480 pixels

Display aspect ratio :4:3

Frame rate mode :Variable

Frame rate :25.000 fps

Color space :YUV

Chroma subsampling :4:2:0

Bit depth :8 bits

Scan type :Progressive

Bits/(Pixel*Frame) :0.058

Stream size :382 MiB (62%)

Writing library :x264 core 129

Audio

Format :MPEG Audio

Format version :Version 1

Format profile :Layer 3

Mode :Joint stereo

Codec ID :55

Codec ID/Hint :MP3

Duration :2h 2mn

Bit rate mode :Constant

Bit rate :256 Kbps

Channel(s) :2 channels

Sampling rate :44.1 KHz

Compression mode :Lossy

Stream size :224 MiB (36%)

Alignment :Aligned on interleaves

Interleave, duration :26 ms (0.65 video frame)

Post a new comment

  •