This torrent was reported fake or harmful by our users. Try one of the below `verified torrents`.

0
Seeders
0
Leechers
701.02 MB
Size
uploaded by
jymy432
Edit this file
Secure download @BtGuard Torrent file mirrors @Zoink.it - @Fenopy Resources Search Google - Torrentz - IsoHunt

Files

Paranormal Activity 4 2012 FRENCH DVDRiP XViD - DEUTERiUM torrent (size: 701.022 MB)
Paranormal Activity 4 2012 FRENCH DVDRiP XViD - DEUTERiUM.nfo
text
1.94 KB
.nfo
Paranormal Activity 4 2012 FRENCH DVDRiP XViD - DEUTERiUM.rar
compress
701.00 MB
.rar
Screenshot01 .png
image
5.29 KB
.png
Screenshot02 .png
image
7.18 KB
.png
Screenshot03 .png
image
7.45 KB
.png
Paranormal Activity 4 2012 FRENCH DVDRiP XViD - DEUTERiUM

STATS:

Video
ID                               : 0
Format                           : MPEG-4 Visual
Format profile                   : Advanced Simple@L5
Format settings, BVOP            : 2
Format settings, QPel            : No
Format settings, GMC             : No warppoints
Format settings, Matrix          : Default (MPEG)
Muxing mode                      : Packed bitstream
Codec ID                         : XVID
Codec ID/Hint                    : XviD
Duration                         : 1h 28mn
Bit rate                         : 986 Kbps
Width                            : 720 pixels
Height                           : 320 pixels
Display aspect ratio             : 2.25:1
Frame rate                       : 29.970 fps
Color space                      : YUV
Chroma subsampling               : 4:2:0
Bit depth                        : 8 bits
Scan type                        : Progressive
Compression mode                 : Lossy
Bits/(Pixel*Frame)               : 0.243
Stream size                      : 647 MiB (92%)
Writing library                  : XviD 64

Audio

Format                           : MPEG Audio
Format version                   : Version 1
Format profile                   : Layer 3
Mode                             : Joint stereo
Mode extension                   : MS Stereo
Codec ID                         : 55
Codec ID/Hint                    : MP3
Duration                         : 1h 28mn
Bit rate mode                    : Constant
Bit rate                         : 128 Kbps
Channel(s)                       : 2 channels
Sampling rate                    : 48.0 KHz
Compression mode                 : Lossy
Stream size                      : 56 MiB (7%)
Alignment                        : Split accross interleaves
Interleave, duration             : 33 ms (1.00 video frame)
Interleave, preload duration     : 500 ms

Post a new comment

  •