This torrent was reported fake or harmful by our users. Try one of the below `verified torrents`.

1
Seeders
1
Leechers
720.89 MB
Size
uploaded by
freedom2013
Edit this file
Secure download @BtGuard Torrent file mirrors @Zoink.it - @Fenopy Resources Search Google - Torrentz - IsoHunt

Files

O Uivo da Gaita.2013.DVDrip.XviD torrent (size: 720.889 MB)
O Uivo da Gaita.2013.DVDrip.XviD
O Uivo da Gaita.2013.DVDrip.XviD.rar
compress
708.89 MB
.rar
Dmt Nfo.txt
text
477.00 Bytes
.txt
O Uivo da Gaita.2013.DVDrip.XviD.avi
video
10.00 MB
.avi
O Uivo da Gaita.2013.DVDrip.XviD.jpeg
image
1.00 MB
.jpeg
O Uivo da Gaita.2013.DVDrip.XviD.nfo
text
1.00 MB
.nfo
Torrent Downloaded From downloadhindimovies.in.txt
text
478.00 Bytes
.txt
Torrent downloaded from h33t.com.txt
text
480.00 Bytes
.txt

Format :AVI

Format/Info :Audio Video Interleave

Format profile :OpenDML

Overall bit rate :1 800 Kbps

Writing application :VirtualDubMod 1.5.10.2 (build 2542/release)

Writing library :VirtualDubMod build 2542/release

[b]Video[/b]

Format :MPEG-4 Visual

Format settings, BVOP :Yes

Format settings, QPel :No

Format settings, Matrix :Default (MPEG)

Codec ID :XVID

Codec ID/Hint :XviD

Bit rate :1 411 Kbps

Width :640 pixels

Height :272 pixels

Display aspect ratio :2.35:1

Frame rate :23.976 fps

Resolution :24 bits

Colorimetry :4:2:0

Scan type :Progressive

Bits/(Pixel*Frame) :0.338

Stream size :1.03 GiB (78%)

[b]Audio[/b]

Format :AC-3

Format/Info :Audio Coding 3

Codec ID :2000

Bit rate mode :Constant

Bit rate :384 Kbps

Channel(s) :6 channels

Channel positions :Front: L C R, Surround: L R, LFE

Sampling rate :48.0 KHz

Stream size :287 MiB (21%)

Alignment :Aligned on interleaves

Interleave, duration :64 ms (1.53 video frames)

Interleave, preload duration :192 ms

Post a new comment

  •   

User comments (2)

Guest  10 months ago

Qual é a senha para abrir a pasta "o uivo da gaita"!?

REPLY
  • 1
Guest  10 months ago

Qual é a senha para abrir a pasta!?

REPLY
  • -1