0
Seeders
1
Leechers
432.55 MB
Size
Edit this file
Secure download @BtGuard Torrent file mirrors @Zoink.it - @Fenopy Resources Search Google - Torrentz - IsoHunt

Files

nirahuwa.mp4 torrent (size: 432.551 MB)
nirahuwa.mp4
video
432.55 MB
.mp4

Format :MPEG-4

Format profile :Base Media

Codec ID :isom

File size :433 MiB

Duration :2h 45mn

Overall bit rate :365 Kbps

Video

ID :1

Format :MPEG-4 Visual

Format profile :Simple@L3

Format settings, BVOP :No

Format settings, QPel :No

Format settings, GMC :No warppoints

Format settings, Matrix :Default (H.263)

Codec ID :20

Duration :2h 45mn

Bit rate mode :Variable

Bit rate :233 Kbps

Width :640 pixels

Height :480 pixels

Display aspect ratio :4:3

Frame rate mode :Constant

Frame rate :25.000 fps

Resolution :8 bits

Colorimetry :4:2:0

Scan type :Progressive

Bits/(Pixel*Frame) :0.030

Stream size :276 MiB (64%)

Audio

ID :2

Format :MPEG Audio

Format version :Version 1

Format profile :Layer 3

Mode :Joint stereo

Format_Settings_ModeExtension :MS Stereo

Codec ID :.mp3

Duration :2h 45mn

Bit rate mode :Constant

Bit rate :128 Kbps

Channel(s) :2 channels

Sampling rate :44.1 KHz

Stream size :152 MiB (35%)

http://www.youtube.com/watch?v=3hWszfFv98Q

this is a reginiol movie mainly seen by u.p n bihar people(northern states of india) but this was a huge hit ..not much can be found on the internet about these movies yet... but if you like this movie let me know i got a couple more which i will upload ..i ve made the size small but if u want i can upload better quality as well it depends on how many ppl want it ...just let me know ..

Post a new comment

  •