0
Seeders
1
Leechers
19.49 MB
Size
Edit this file
Secure download @BtGuard Torrent file mirrors @Zoink.it - @Fenopy Resources Search Google - Torrentz - IsoHunt
Manipuri 1st Year Students Homemade Scandal-Team SRG.avi torrent Manipuri 1st Year Students Homemade Scandal-Team SRG.avi torrent Manipuri 1st Year Students Homemade Scandal-Team SRG.avi torrent
  • Play
  • Manipuri 1st Year Students Homemade Scandal-Team SRG.avi (Audio Preview)
These previews were generated automatically. please contact us to report abuse.

Files

Manipuri Scandal-SRG torrent (size: 19.488 MB)
Manipuri 1st Year Students Homemade Scandal-Team SRG.avi
video
19.23 MB
.avi
Torrent Tracked By Team SRG.txt
text
520.00 Bytes
.txt
logo.png.jpeg
image
260.47 KB
.jpeg

Manipuri Sex Scandal MMS HQ Video - 20mb - [18+]

General

Complete name :Manipuri Scandal-

Format :AVI

Format/Info :Audio Video Interleave

File size :19.2 MiB

Duration :4mn 30s

Overall bit rate :596 Kbps

Writing library :VirtualDub build 32706/release

Video

ID :0

Format :MPEG-4 Visual

Format profile :Advanced Simple@L5

Format settings, BVOP :Yes

Format settings, QPel :No

Format settings, GMC :No warppoints

Format settings, Matrix :Default (H.263)

Muxing mode :Packed bitstream

Codec ID :XVID

Codec ID/Hint :XviD

Duration :4mn 30s

Bit rate :392 Kbps

Width :640 pixels

Height :480 pixels

Display aspect ratio :4:3

Frame rate :30.084 fps

Color space :YUV

Chroma subsampling :4:2:0

Bit depth :8 bits

Scan type :Progressive

Bits/(Pixel*Frame) :0.042

Stream size :12.6 MiB (66%)

Writing library :XviD 1.2.1 (UTC 2008-12-04)

Audio

ID :1

Format :MPEG Audio

Format version :Version 1

Format profile :Layer 3

Codec ID :55

Codec ID/Hint :MP3

Duration :4mn 30s

Bit rate mode :Constant

Bit rate :192 Kbps

Channel(s) :2 channels

Sampling rate :44.1 KHz

Video delay :26ms

Stream size :6.20 MiB (32%)

Alignment :Split accross interleaves

Interleave, duration :33 ms (1.00 video frame)

Interleave, preload duration :500 ms

Writing library :LAME3.93

Post a new comment