20
Seeders
2
Leechers
698.54 MB
Size
uploaded by
Riviixu
Edit this file
Torrent file mirrors @Zoink.it - @Fenopy

Files

La Vie d'Adèle 2013 FRENCH DVDRiP XViD - RIPPETOUT torrent (size: 698.539 MB)
La Vie d'Adèle 2013 FRENCH DVDRiP XViD - RIPPETOUT.nfo
text
1.68 KB
.nfo
La Vie d'Adèle 2013 FRENCH DVDRiP XViD - RIPPETOUT.rar
compress
698.00 MB
.rar
Screenshot01.JPG
image
51.13 KB
.jpg
Screenshot02.JPG
image
59.60 KB
.jpg
Screenshot03.JPG
image
52.13 KB
.jpg
cover.jpg
image
386.86 KB
.jpg
La Vie d'Adele 2013 FRENCH DVDRiP XViD - RIPPETOUT

Torrent preview image

IMDB Link: 

http://www.imdb.com/title/tt2278871/

Un film d'Abdellatif Kechiche avec Léa Seydoux et Adele Exarchopoulos

Genre : Drame - Duree : 2h 55min
Format : AVI
Format/Info : Audio Video Interleave
Format profile : OpenDML
Format settings : rec
Overall bit rate : 1 651 Kbps
Writing application : VirtualDubMod 1.5.10.2 (build 2542/release)
Writing library : VirtualDubMod build 2542/release

.
Video
ID : 0
Format : MPEG-4 Visual
Format profile : Advanced Simple@L5
Format settings, BVOP : 1
Format settings, QPel : No
Format settings, GMC : No warppoints
Format settings, Matrix : Custom
Codec ID : XVID
Codec ID/Hint : XviD
Bit rate : 1 454 Kbps
Width : 720 pixels
Height : 304 pixels
Display aspect ratio : 2.35:1
Frame rate : 23.976 fps
Color space : YUV
Chroma subsampling : 4:2:0
Bit depth : 8 bits
Scan type : Progressive
Compression mode : Lossy
Bits/(Pixel*Frame) : 0.277
Stream size : 614 MiB (88%)
Writing library : XviD 1.2.1 (UTC 2008-12-04)
.
Audio
ID : 1
Format : AC-3
Format/Info : Audio Coding 3
Mode extension : CM (complete main)
Format settings, Endianness : Big
Codec ID : 2000
Bit rate mode : Constant
Bit rate : 192 Kbps
Channel(s) : 2 channels
Channel positions : Front: L R
Sampling rate : 48.0 KHz
Bit depth : 16 bits
Compression mode : Lossy
Stream size : 84 MiB (12%)
Alignment : Aligned on interleaves
Interleave, duration : 64 ms (1.53 video frames)
Interleave, preload duration : 192 ms

SCREENS:

Torrent preview image
Torrent preview image
Torrent preview image

Post a new comment

  •   

User comments (13)

Guest  1 year ago

fake

REPLY
  • 0
Guest  1 year ago

ou se trouve le mot de passe

REPLY
  • 0
Guest  1 year ago

donde demonios esta el pasword

REPLY
  • 0
Guest  1 year ago

rakd be ta az anyadba ,a jelszo... bunko...

REPLY
  • 0
Guest  1 year ago

Le mot de passe pour ouvrir le document n'est pas fourni.
No password to open the document.
FAKE !!!

REPLY
  • 0
All comments