Verified torrent.

672
Seeders
100
Leechers
1.86 GB
Size
Edit this file
Secure download @BtGuard Torrent file mirrors @Zoink.it - @Fenopy Resources Search Google - Torrentz - IsoHunt
Iron Man 3 Post Credits Scene.mp4 torrent Iron Man 3 Post Credits Scene.mp4 torrent Iron Man 3 Post Credits Scene.mp4 torrent
  • Play
  • Iron Man 3 Post Credits Scene.mp4 (Audio Preview)
These previews were generated automatically. please contact us to report abuse.

Files

[ www.UsaBit.com ] - Iron Man 3 2013 R6 LiNE READNFO XViD - JUSTiCE torrent (size: 1.860 GB)
Iron Man 3 2013 R6 LiNE READNFO XViD - JUSTiCE.avi
video
1.75 GB
.avi
Iron Man 3 2013 R6 LiNE READNFO XViD - JUSTiCE.nfo
text
3.11 KB
.nfo
Iron Man 3 Post Credits Scene.mp4
video
93.41 MB
.mp4
UsaBit.com.txt
size
sample.avi
video
15.01 MB
.avi

Torrent preview image

Iron Man 3 2013 R6 LiNE READNFO XViD - JUSTiCE

SOURCE :VIDEO - R6

AUDIO - UNiQUE

Video and audio both cleaned and given justice.

Check sample and see.....

Ok same video as our v2 cam release ....however this time i have syncd the line audio off

unique's release to our video.

They used the other video that was nice and had no watermarks ...but have HC subs.So thought doing

this,this way gives you another option.

Also have cleaned the audio up in adobe,changing the eq bands aswell as using a light hiss filter.

Will say there is parts where theres some static that comes and goes and whilst i've toned it down

it was impossible to remove without wrecking the audio so ....

http://www.imdb.com/title/tt1300854/

Video

ID :0

Format :MPEG-4 Visual

Format profile :Advanced Simple@L5

Format settings, BVOP :2

Format settings, QPel :No

Format settings, GMC :No warppoints

Format settings, Matrix :Default (MPEG)

Muxing mode :Packed bitstream

Codec ID :XVID

Codec ID/Hint :XviD

Duration :2h 8mn

Bit rate :1 810 Kbps

Width :720 pixels

Height :304 pixels

Display aspect ratio :2.35:1

Frame rate :29.970 fps

Color space :YUV

Chroma subsampling :4:2:0

Bit depth :8 bits

Scan type :Progressive

Compression mode :Lossy

Bits/(Pixel*Frame) :0.276

Stream size :1.63 GiB (93%)

Writing library :XviD 64

Audio

ID :1

Format :MPEG Audio

Format version :Version 1

Format profile :Layer 3

Mode :Joint stereo

Mode extension :MS Stereo

Codec ID :55

Codec ID/Hint :MP3

Duration :2h 8mn

Bit rate mode :Constant

Bit rate :128 Kbps

Channel(s) :2 channels

Sampling rate :48.0 KHz

Compression mode :Lossy

Delay relative to video :10ms

Stream size :118 MiB (7%)

Alignment :Split accross interleaves

Interleave, duration :33 ms (1.00 video frame)

Interleave, preload duration :500 ms

Oh added bonus ...THE after end credit scene is also inc :)

Sorry about the file missing on some site on our v2 release ...for some reason it

wasn't inc on all the sites it was upped to.

Torrent preview image Torrent preview image Torrent preview image Torrent preview image Torrent preview image Torrent preview image Torrent preview image

Free Image Hosting by imgbox.com

Post a new comment

  •   

User comments (6)

Guest  11 months ago

Video: 10/10

You Can Watch Movie {High Quality} on www.credit33.com No Register Its Free

REPLY
  • 0
Guest  11 months ago

very bad , dont download thare is great hdcam rip online at http://redir.ec/asxQK works with ps3

REPLY
  • -2
Guest  11 months ago

watch Pinay Sexy Videos at www.PinaySkin.com

REPLY
  • -2
yebako.com  11 months ago

nice

REPLY
  • -2
Guest  11 months ago

Video: 10/10 - Audio: 10/10

REPLY
  • 0
All comments