Verified torrent.

5535
Seeders
2553
Leechers
1.37 GB
Size
Edit this file
Torrent file mirrors @Zoink.it - @Fenopy

Files

Iron Man 3 (2013) DVDRip XviD-MAXSPEED torrent (size: 1.366 GB)
Iron Man 3 (2013) DVDRip XviD-MAXSPEED www.torentz.3xforum.ro.avi
video
1.36 GB
.avi
Iron Man 3 (2013) DVDRip XviD-MAXSPEED.nfo
text
3.33 KB
.nfo
Torrent downloaded from Extratorrent.com.txt
text
40.00 Bytes
.txt
Torrent downloaded from Kat.ph.txt
text
46.00 Bytes
.txt
Torrent downloaded from Rarbg.com.txt
text
33.00 Bytes
.txt
Torrent downloaded from h33t.com.txt
text
32.00 Bytes
.txt
sample.avi
video
7.26 MB
.avi
screencaps.jpeg
image
470.93 KB
.jpeg

http://www.torentz.3xforum.ro/post/3189/1/Iron_Man_3_2013_DVDRip_XviD-MAXSPEED/

Torrent preview image

Screens:

Torrent preview image

Torrent preview image

Torrent preview image

ScreenCaps:

ScreenCaps:

Torrent preview image

Code:

Iron Man 3 (2013) DVDRip XviD-MAXSPEED

Format :AVI

Format/Info :Audio Video Interleave

Format profile :OpenDML

Format settings :rec

File size :1.36 GiB

Duration :2h 11mn

Overall bit rate :1 481 Kbps

Writing application :VirtualDubMod 1.5.10.2 (build 2542/release)

Writing library :VirtualDubMod build 2542/release

Original source form :MAX TORRENTZ

Copyright :SIGISMUNT

Video

ID :0

Format :MPEG-4 Visual

Format profile :Advanced Simple@L5

Format settings, BVOP :2

Format settings, QPel :No

Format settings, QPel :No

Format settings, GMC :No warppoints

Format settings, Matrix :Default (MPEG)

Codec ID :XVID

Codec ID/Hint :XviD

Codec ID/Hint :XviD

Duration :2h 11mn

Bit rate :1 094 Kbps

Width :720 pixels

Height :304 pixels

Display aspect ratio :2.35:1

Frame rate :23.976 fps

Color space :YUV

Chroma subsampling :4:2:0

Bit depth :8 bits

Scan type :Progressive

Compression mode :Lossy

Bits/(Pixel*Frame) :0.208

Stream size :1.00 GiB (74%)

Writing library :XviD 1.2.1 (UTC 2008-12-04)

Audio

ID :1

Format :AC-3

Format/Info :Audio Coding 3

Mode extension :CM (complete main)

Format settings, Endianness :Big

Codec ID :2000

Duration :2h 11mn

Bit rate mode :Constant

Bit rate :384 Kbps

Channel(s) :6 channels

Channel positions :Front: L C R, Side: L R, LFE

Sampling rate :48.0 KHz

Bit depth :16 bits

Bit depth :16 bits

Compression mode :Lossy

Stream size :359 MiB (26%)

Alignment :Aligned on interleaves

Interleave, duration :64 ms (1.54 video frames)

Interleave, preload duration :192 ms

Source :DVD (perfect a/v/sync quality,sample included)

This torrent is not seedbox supported,please seed it to the MAX

Note :f you have something to offer as early releases,seedboxes,

links,accounts,etc please contact us on torentz 3xforum ro

How To Get Your MAXSPEED (uTorrent)

Torrent Client - Preferences - Bandwidth - Number of connections - Set aprox. 500 for each

Torrent Client - Preferences - BiTorrent - Protocol Encryption - Forced

Bandwidth Allocation - High (Set download/upload limit - Unlimited)

Stop Other Active Torrents - Start downloading and wait for connections.

Enjoy and Seed for at least 1 : ratio. Don't forget to say thanks/leave reviews.

Before downloading you should check/google search sample "release name""sample".

Greets to all actual/future p2p/scene QUALITY groups and affiliate websites.

Don't trust IMDb robot or bad ratings,always watch some trailers first.

Ignore stupid comments/fake/mislabeled/no-DVDrips/CAM/TS/RAR uploads.

Please spread this release/torrent to your friends/forums/etc.

If you need translation subs visit some subtitles sites.

Report if you see online streaming or other spam links.

Recommended movie player VLC PLAYER.

Post a new comment

  •   

User comments (2)

Guest  10 months ago

Video: 3/10 - Audio: 4/10

If I want grainy quality I would've gotten a vhs tape...

REPLY
  • 1
laulashosho  12 months ago

thanks

REPLY
  • 0