Verified torrent.

8
Seeders
3
Leechers
34.14 GB
Size
uploaded by
marziodance (verified uploader)
Edit this file
Secure download @BtGuard Torrent file mirrors @Zoink.it - @Fenopy Resources Search Google - Torrentz - IsoHunt

Files

DON CARLO at Salzburg Festival 08.16.2013 HDTV 1080i Mpeg2 AC3 MME torrent (size: 34.144 GB)
1 Part I.ts
file
14.46 GB
.ts
2 Part II.ts
file
5.87 GB
.ts
3 Part III.ts
file
13.81 GB
.ts
MediaInfo.txt
text
3.29 KB
.txt

Complete name :DON CARLO Part I, II & III

Format :MPEG-TS

File size :34.1 GiB

Duration :3h 53mn

Overall bit rate mode :Variable

Overall bit rate :19.8 Mbps

Video

ID :308 (0x134)

Menu ID :1 (0x1)

Format :MPEG Video

Format version :Version 2

Format profile :Main@High

Format settings, BVOP :No

Format settings, Matrix :Custom

Format settings, GOP :N=12

Codec ID :2

Width :1 920 pixels

Height :1 080 pixels

Display aspect ratio :16:9

Frame rate :25.000 fps

Color space :YUV

Chroma subsampling :4:2:0

Bit depth :8 bits

Scan type :Interlaced

Scan order :Top Field First

Compression mode :Lossy

Bits/(Pixel*Frame) :0.349

Time code of first frame :00:00:00:00

Time code source :Group of pictures header

Stream size :13.2 GiB (91%)

Audio #1

ID :256 (0x100)

Menu ID :1 (0x1)

Format :AC-3

Format/Info :Audio Coding 3

Mode extension :CM (complete main)

Format settings, Endianness :Big

Codec ID :6

Bit rate mode :Constant

Bit rate :448 Kbps

Channel(s) :6 channels

Channel positions :Front: L C R, Side: L R, LFE

Sampling rate :48.0 KHz

Bit depth :16 bits

Compression mode :Lossy

Delay relative to video :-14ms

Stream size :335 MiB (2%)

Language :ITALIAN

Audio #2

ID :257 (0x101)

Menu ID :1 (0x1)

Format :MPEG Audio

Format version :Version 1

Format profile :Layer 2

Mode :Dual mono

Codec ID :4

Bit rate mode :Constant

Bit rate :256 Kbps

Channel(s) :2 channels

Sampling rate :48.0 KHz

Compression mode :Lossy

Delay relative to video :-5ms

Stream size :191 MiB (1%)

Language :ITALIAN

Post a new comment

  •   

User comments (37)

Guest  7 months ago

do you have the version of don carlo from the royal opera with jonas kaufmann and mariusz kwiecien?

REPLY
  • 0
Guest  8 months ago

Marzio, thank you once again for your work posting all these high quality video.
For complete information, to MAC users, if you can't open Part 2 with tsMUXER, try with Avidemux. Choose "COPY" for Video and Audio fonctions, choose the final format and then save the video. And enjoy ...Sool

REPLY
  • 0
Guest  8 months ago

Marzio, thank you once again for your work in uploading all these high quality videos.
For complete information, to MAC users, if you can't open Part 2 with tsMUXER, try with Avidemux. Choose "COPY" for Video and Audio fonctions, choose final format and then save video. Enjoy...Sool

REPLY
  • 0
Guest  8 months ago

Another easy -and free- Mac remux option is mkvToolnix.

Guest  8 months ago

I for one have found all of your posts perfect, for which I am extremely grateful. And thank you for your time and effort...Peter

REPLY
  • 0
Guest  8 months ago

Part 2 is corrupt. Is there any chance to re-upload ? Thank you !!

REPLY
  • 1
All comments