Verified torrent.

12
Seeders
1
Leechers
570.39 MB
Size
uploaded by
cursator
Edit this file
Torrent file mirrors @Zoink.it - @Fenopy

Files

Beck the Movie torrent (size: 570.389 MB)
Cover
Beck [Cursator].jpg
image
236.37 KB
.jpg
Screenshots
Beck 1.png
image
242.71 KB
.png
Beck 2.png
image
205.05 KB
.png
Beck 3.png
image
260.15 KB
.png
Beck 4.png
image
296.10 KB
.png
Beck 5.png
image
203.67 KB
.png
BECK_-Mongolian-Chop-Squad-Full-Live-Action-Movie-(Eng-Sub).srt
text
80.96 KB
.srt
BECK_-Mongolian-Chop-Squad-Full-Live-Action-Movie-(Eng-Sub).webm
file
568.90 MB
.webm

Beck The Movie! (Beck Live Action) at 480p Video Quality :)

Please seed after you download.

--------------------------------------------------------------------------------

Cover
--------------------------------------------------------------------------------
        
Torrent preview image
--------------------------------------------------------------------------------

Torrent preview image
---------------------------------------------------------------------------------

Torrent Statistics

Torrent preview image
----------------------------------------------------------------------------------

General
--------

Format                                   : WebM
Format version                           : Version 2
File size                                : 569 MiB
Duration                                 : 2h 26mn
Overall bit rate mode                    : Variable
Overall bit rate                         : 543 Kbps
Writing application                      : google
Writing library                          : google

Torrent preview image
---------------------------------------

ID                                       : 1
Format                                   : VP8
Codec ID                                 : V_VP8
Duration                                 : 2h 26mn
Bit rate                                 : 384 Kbps
Width                                    : 640 pixels
Height                                   : 284 pixels
Display aspect ratio                     : 2.25:1
Frame rate mode                          : Constant
Frame rate                               : 23.976 fps
Compression mode                         : Lossy
Bits/(Pixel*Frame)                       : 0.088
Stream size                              : 403 MiB (71%)
Language                                 : English
Default                                  : Yes
Forced                                   : No

Torrent preview image
----------------------------------

ID                                       : 2
Format                                   : Vorbis
Format settings, Floor                   : 1
Codec ID                                 : A_VORBIS
Duration                                 : 2h 26mn
Bit rate mode                            : Variable
Bit rate                                 : 128 Kbps
Channel(s)                               : 2 channels
Sampling rate                            : 44.1 KHz
Compression mode                         : Lossy
Stream size                              : 134 MiB (24%)
Default                                  : Yes
Forced                                   : No

----------------------------------------------------------------------------------

Torrent preview image
----------------------------------------------------------------------------------
              
Torrent preview image

              
Torrent preview image

              
Torrent preview image

              
Torrent preview image

              
Torrent preview image

 
----------------------------------------------------------------------------------

Story
----------------------------------------------------------------------------------

Tanaka Yukio, better known by his nickname Koyuki is a 16 year old who feels disconnected from life in general. Through the act of saving a mismatched dog, he meets guitarist Minami Ryuusuke, and becomes involved in Ryuusuke's new band BECK. Koyuki's life starts to change as the band struggles towards fame.
----------------------------------------------------------------------------------

Thank you for downloading. 

Enjoy Watching :)
----------------------------------------------------------------------------------

Facebook
----------------------------------------------------------------------------------

                                                                             Torrent preview image
                                                                            Find Me on Facebook :)

or 

Cursator@ymail.com

Post a new comment

  •