Verified torrent.

2
Seeders
0
Leechers
1.37 GB
Size
uploaded by
robbyrs1 (verified uploader)
Edit this file
Torrent file mirrors @Zoink.it - @Fenopy

Files

Bandar - Le Avventure di Bandar (1978) - Osamu Tezuka torrent (size: 1.365 GB)
Bandar (1978).avi
video
1.36 GB
.avi
Bandar (1978).idx
file
36.80 KB
.idx
Bandar (1978).sub
file
3.95 MB
.sub

Bandar - Le Avventure di Bandar - Osamu Tezuka (1978) [XviD - Italian Japanese Ac3 - Sub Ita] MIRCrew [TNT Village]

Torrent preview image

Le Avventure di Bandar (1978) Osamu Tezuka

Torrent preview image

[color=#333300]Nel 1978 la NTV giapponese commissionò alla Tezuka production un lungometraggio di animazione da trasmettere all’interno dello special “24 ore di televisione – L’amore

salverà la terra”, una sorta di Telethon volto alla raccolta di fondi per la difesa dell’ambiente. Si trattava di un esperimento di estrema complessità dal momento che il solo special

televisivo fino a quel momento prodotto direttamente per il piccolo schermo era stato Shin Takarajima (La Nuova Isola del tesoro) sempre a firma del dio dei Manga Tezuka Osamu. In quel

caso, però, la relativa lunghezza del prodotto (appena un’ora) aveva non poco semplificato i lavori del team di disegnatori assoldati per il progetto. Shin Takarajima, di fatto, è poco più

di un’estensione di un episodio televisivo di mezz’ora e, nello spazio franco della trasmissione, esso non può contenere quelle divagazioni rispetto all’intreccio principale della vicenda

che saranno la cifra distintiva degli ancora a venire prodotti degli anni ’80.

Torrent preview image

Torrent preview image

SCHEDA:

    *  Osamu Tezuka  - Sceneggiatore

    * Yuji Ono - Compositore Della Musica

    * Ei Itô - Montatore

    * Harutoshi Ogata - Montatore

    * Hisashi Sakaguchi - Designer Dei Personaggi

TRAMA:

Bandar è il giovane principe di un lontano pianeta, dove gli abitanti hanno la capacità di trasformarsi in animali.

Un giorno scopre di essere un orfano e di provenire in realtà dal pianeta Terra, ora controllato da un malvagio Computer.

Prende così la decisione di fare ritorno sul suo pianeta d'origine per cercare di distruggere l'infernale macchina e dovrà anche affrontare Black Jack, giunto dalla Terra per invadere Zobi,

ilpianeta su cui è naufragato.

Torrent preview image

Torrent preview image

DATI FILE:

General

Complete name :Bandar (1978)Bandar (1978).avi

Format :AVI

Format/Info :Audio Video Interleave

File size :1.36 GiB

Duration :1h 32mn

Overall bit rate :2 108 Kbps

Writing application :FairUse Wizard

Writing library :The best and REALLY easy backup tool

Video

ID :0

Format :MPEG-4 Visual

Format profile :Advanced Simple@L5

Format settings, BVOP :Yes

Format settings, QPel :No

Format settings, GMC :No warppoints

Format settings, Matrix :Default (H.263)

Muxing mode :Packed bitstream

Codec ID :XVID

Codec ID/Hint :XviD

Duration :1h 32mn

Bit rate :1 710 Kbps

Width :688 pixels

Height :512 pixels

Display aspect ratio :4:3

Frame rate :25.000 fps

Color space :YUV

Chroma subsampling :4:2:0

Bit depth :8 bits

Scan type :Progressive

Bits/(Pixel*Frame) :0.194

Stream size :1.10 GiB (81%)

Writing library :XviD 1.2.0.dev47 (UTC 2006-11-01)

Audio #1

ID :1

Format :AC-3

Format/Info :Audio Coding 3

Mode extension :CM (complete main)

Codec ID :2000

Duration :1h 32mn

Bit rate mode :Constant

Bit rate :192 Kbps

Channel(s) :2 channels

Channel positions :Front: L R

Sampling rate :48.0 KHz

Bit depth :16 bits

Stream size :127 MiB (9%)

Alignment :Split accross interleaves

Interleave, duration :40 ms (1.00 video frame)

Interleave, preload duration :500 ms

Audio #2

ID :2

Format :AC-3

Format/Info :Audio Coding 3

Mode extension :CM (complete main)

Codec ID :2000

Duration :1h 32mn

Bit rate mode :Constant

Bit rate :192 Kbps

Channel(s) :2 channels

Channel positions :Front: L R

Sampling rate :48.0 KHz

Bit depth :16 bits

Stream size :127 MiB (9%)

Alignment :Split accross interleaves

Interleave, duration :40 ms (1.00 video frame)

Interleave, preload duration :500 ms

Post a new comment

  •