0
Seeders
1
Leechers
1.19 GB
Size
uploaded by
liana1myoc
Edit this file
Secure download @BtGuard Torrent file mirrors @Zoink.it - @Fenopy Resources Search Google - Torrentz - IsoHunt

Files

A Haunted House (2013) BRRip 1080p x264 AAC - KiNGDOM torrent (size: 1.194 GB)
A Haunted House (2013) BRRip 1080p x264 AAC - KiNGDOM.avi
video
1.19 GB
.avi
ExtraTorrentRG.mp4
video
1.45 MB
.mp4
MOVIE.nfo
text
4.74 KB
.nfo
Torrent downloaded from Rarbg.com.txt
text
22.00 Bytes
.txt
Torrent downloaded from www.KAT.ph.txt
text
41.00 Bytes
.txt
Torrent_downloaded_from_Extratorrent_Com.txt
text
42.00 Bytes
.txt
extrainfoplain.png
image
50.50 KB
.png

A Haunted House (2013) BRRip 1080p x264 AAC - KiNGDOM

Video

ID :0

Format :MPEG-4 Visual

Format profile :Advanced Simple@L5

Format settings, BVOP :2

Format settings, QPel :No

Format settings, GMC :No warppoints

Format settings, Matrix :Default (H.263)

Muxing mode :Packed bitstream

Codec ID :XVID

Codec ID/Hint :XviD

Duration :1h 36mn

Bit rate :1 573 Kbps

Width :720 pixels

Height :304 pixels

Display aspect ratio :2.35:1

Frame rate :23.976 fps

Color space :YUV

Chroma subsampling :4:2:0

Bit depth :8 bits

Scan type :Progressive

Compression mode :Lossy

Bits/(Pixel*Frame) :0.300

Stream size :1.06 GiB (77%)

Writing library :XviD 64

Audio

ID :1

Format :AC-3

Format/Info :Audio Coding 3

Mode extension :CM (complete main)

Format settings, Endianness :Big

Codec ID :2000

Duration :1h 36mn

Bit rate mode :Constant

Bit rate :448 Kbps

Channel(s) :6 channels

Channel positions :Front: L C R, Side: L R, LFE

Sampling rate :48.0 KHz

Bit depth :16 bits

Compression mode :Lossy

Stream size :309 MiB (22%)

Alignment :Aligned on interleaves

Interleave, duration :42 ms (1.00 video frame)

Post a new comment

  •   

User comments (7)

All comments