0
Seeders
0
Leechers
951.93 MB
Size
uploaded by
frest0rrentz
Edit this file
Torrent file mirrors @Zoink.it - @Fenopy

Files

Immigration Tango.2011.TS.XViD-T0XiC-iNK torrent (size: 951.927 MB)
Demonoid.com.txt
text
42.00 Bytes
.txt
Immigration Tango.2011.TS.XViD-T0XiC-iNK.avi
video
951.86 MB
.avi
MOVIE.nfo
text
4.74 KB
.nfo
[Eng][Subs].srt
text
67.25 KB
.srt

Immigration Tango.2011.TS.XViD-T0XiC-iNK

Format :AVI

Format/Info :Audio Video Interleave

Format profile :OpenDML

Duration :1h 38mn

Overall bit rate :2 006 Kbps

Writing application :VirtualDubMod 1.5.10.2 (build 2542/release)

Writing library :VirtualDubMod build 2542/release

Original source form :MAX TORRENTZ

Copyright :SIGISMUNT

Video

ID :0

Format :MPEG-4 Visual

Format profile :AdvancedSimple@L5

Format settings, BVOP :Yes

Format settings, QPel :No

Format settings, GMC :No warppoints

Format settings, Matrix :Default (H.263)

Codec ID :XVID

Codec ID/Hint :XviD

Duration :1h 38mn

Bit rate :1 552 Kbps

Width :720 pixels

Height :304 pixels

Display aspect ratio :2.35:1

Frame rate :23.976 fps

Resolution :24 bits

Colorimetry :4:2:0

Scan type :Progressive

Bits/(Pixel*Frame) :0.296

Stream size :1.07 GiB (77%)

Writing library :XviD 1.2.1 (UTC 2008-12-04)

Audio

ID :1

Format :AC-3

Format/Info :Audio Coding 3

Codec ID :2000

Duration :1h 38mn

Bit rate mode :Constant

Bit rate :448 Kbps

Channel(s) :6 channels

Channel positions :Front: L C R, Surround: L R, LFE

Sampling rate :48.0 KHz

Stream size :316 MiB (22%)

Alignment :Aligned on interleaves

Interleave, duration :64 ms (1.53 video frames)

Interleave, preload duration :192 ms

Source :080P AVC DTS-HD MA5.1 (perfect a/v/sync quality-sample is included)

How To Get Your Maxspeed (uTorrent)

Torrent Client - Preferences - Bandwidth - Number of connections - Set aprox. 500 for each

Torrent Client - Preferences - BiTorrent - Protocol Encryption - Forced

Bandwidth Allocation - High (Set download/upload limit - Unlimited)

Stop Other Active Torrents - Start downloading and wait for connections.

Enjoy and Seed for at least 1 : ratio. Don't forget to say thanks/leave reviews.

Before downloading you should check/google search sample "release name""sample".

Greets to all actual/future p2p/scene QUALITY groups and affiliate websites.

Don't trust IMDb robot or bad ratings,always watch some trailers first.

Ignore stupid comments/fake/mislabeled/no-DVDrips/CAM/TS/RAR uploads.

Please spread this release/torrent to your friends/forums/etc.

If you need translation subs visit some subtitles sites.

Report if you see online streaming or other spam links.

Recommended movie player VLC PLAYER.

Post a new comment

  •